2024 Pretty reckless albums - Editor’s Note: take a look at the Most Anticipated New Albums of 2022. 2020 has been a year unlike any other, unfolding amidst a collage of quarantine-induced isolation, powerful rallying cries for social and racial justice and perhaps the ...

 
01 My Medicine 02 Since You're Gone 03 Make Me Wanna Die 04 Light Me Up 05 Just Tonight 06 Miss Nothing 07 Goin' Down 08 Nothing left To Lose 09 Factory Girl.... Pretty reckless albums

Gone so down, lost is all I found. Only love, love, love can save me now. The Death By Rock And Roll album is an homage to two hugely important people in vocalist Taylor Momsen's life: Soundgarden vocalist Chris Cornell, who died by suicide in 2017 when Pretty Reckless were touring with them. The band's longtime producer Kato Khandwala, who ...My Medicine by The Pretty RecklessThis is the first song from The Pretty Reckless's debut album "Light Me Up".You can listen the full album in a playlist.Her... "Follow Me Down" is a song by American rock band The Pretty Reckless from their second studio album, Going to Hell (2014). The song was written by the band's lead singer Taylor Momsen, while production was done by Kato Khandwala.It was serviced to active rock radio in the United States on November 18, 2014, serving as the album's fifth and final single.Listen to your favorite songs from The Pretty Reckless. Stream ad-free with Amazon Music Unlimited on mobile, desktop, and tablet. Download our mobile app now. ... Top Albums. 1. Going To Hell (Deluxe Edition) [Explicit] E. Album • 2014. 2. Death By Rock And Roll [Explicit] E. Album • 2021. 3. Light Me Up. Album • 2010. 4.Released: September 9, 2016. "Back to the River". Released: June 13, 2017. Who You Selling For is the third studio album by American rock band The Pretty Reckless. It was released on October 21, 2016, by Razor & Tie. The album reached number 13 on the US Billboard 200 and number 23 on the UK Albums Chart. Its lead single, "Take Me Down", topped ...Since releasing their first album, Light Me Up, in 2010, The Pretty Reckless have been on a steadily upward trajectory. They’ve scored four Number 1’s on the Mainstream Rock Songs chart, the most ever by a female-fronted band, and played high-profile tours with Soundgarden, Fall Out Boy, Halestorm, Evanescence and others.Find out when The Pretty Reckless is next playing live near you. List of all The Pretty Reckless tour dates, concerts, support acts, reviews and venue info. Live streams; Chase City concerts. ... Their debut album "Light Me Up" (released August 27, 2010) achieved moderate success, most notably with the single "Make Me Wanna Die." ...Listen to Going To Hell songs Online on JioSaavn. English music album by The Pretty Reckless 1. Follow Me Down - The Pretty Reckless, 2. Going to Hell - The Pretty Reckless, 3. Heaven Knows - The Pretty Reckless, 4. House on a Hill - The Pretty Reckless, 5. Sweet Things - The Pretty RecklessThe Pretty Reckless - “Sweet Things”Listen to the new album 'Death By Rock And Roll' | Available Now: http://found.ee/dbrr Subscribe to The Pretty Reckless o...THE PRETTY RECKLESS's latest album, "Death By Rock And Roll", was made available in February 2021 via Fearless Records in the U.S. and Century Media Records in the rest of the world.The Pretty Reckless Albums Ranked. Rank Cover art Album Rating Votes Reviews ; 1: Light Me Up (2010) 90: 3: 0 #134 for 2010 #3,906 all-time: 2: Death by Rock and Roll ... The Pretty Reckless' new album Death By Rock And Roll is their most ambitious release yet. It was written and completed through the heartbreaking losses of Chris Cornell, who was one of frontwoman Taylor Momsen's musical muses, and of longtime collaborator Kato Khandwala.The Pretty Reckless - “Go So High (Remix)”From ‘Other Worlds’ | OUT NOWListen/Download the album: https://found.ee/otherworldsSubscribe to The Pretty Reckles..."Death By Rock And Roll" was THE PRETTY RECKLESS's first album to be made without longtime producer Kato Khandwala, who died in April 2018 from injuries sustained in a motorcycle accident.Listen to The Pretty Reckless on Spotify. Artist · 1.9M monthly listeners.The Pretty Reckless - Discography (2011-2022) (lossless) ( Hard Rock) - Download for free via torrent ... Albums / Альбомы: 2011 - Light Me Up 2014 - Going To Hell 2016 - Who You Selling For 2021 - Death by Rock and Roll 2022 - Other Worlds (Compilation album) Thanks:discography, line-up, biography, interviews, photos. Ben Phillips. Vocals, Guitar, Back Vocals. Taylor Momsen. Vocals, Guitar. Mark Damon "Miss Nothing" is a song by American rock band The Pretty Reckless from their debut studio album, Light Me Up (2010). It was released on August 18, 2010, as the album's second single. ... The Pretty Reckless. Taylor Momsen – vocals; Ben Phillips – guitar; Jamie Perkins – drums;Listen to your favorite songs from The Pretty Reckless. Stream ad-free with Amazon Music Unlimited on mobile, desktop, and tablet. Download our mobile app now. ... Top Albums. 1. Going To Hell (Deluxe Edition) [Explicit] E. Album • 2014. 2. Death By Rock And Roll [Explicit] E. Album • 2021. 3. Light Me Up. Album • 2010. 4.Listen to Light Me Up by The Pretty Reckless on Apple Music. 2011. 11 Songs. ... Album · 2011 · 11 Songs. Listen Now; Browse; Radio; Search; Open in Music. Light Me Up The Pretty Reckless. HARD ROCK · 2011 Preview. January 1, 2011 11 Songs, 37 minutes ℗ 2011 Interscope Records. Also available in the iTunes StoreThe Pretty Reckless released their fourth album, Death by Rock and Roll, on February 12, 2021. The Pretty Reckless became the first female-fronted band to have five number one singles when "Death by Rock and Roll" hit number one on the charts. Momsen possesses a dramatic mezzo-soprano vocal range. Discography The Pretty Reckless - “Miss Nothing”Listen to the new album 'Death By Rock And Roll' | Available Now: http://found.ee/dbrr Subscribe to The Pretty Reckless o...More The Pretty Reckless albums Death By Rock And Roll. Going To Hell (Japanese Deluxe Edition) Show all albums by The Pretty Reckless Home. P. The Pretty Reckless. Other Worlds.The Pretty Reckless - “Go So High (Remix)”From ‘Other Worlds’ | OUT NOWListen/Download the album: https://found.ee/otherworldsSubscribe to The Pretty Reckles...Nov 4, 2022 · Murray Winship June 2, 2023. "Got So High (Remix)" by The Pretty Reckless, is just a classic now on her latest 2022 album "Other Worlds" to highest acclaim you know. She is better known as Taylor Momsen, best known for her starring role in the TV series Gossip Girl, singing in this hard rock quartet The Pretty Reckless you see. "Death by Rock ... The Pretty Reckless - Only Love Can Save Me Now (Feat. Matt Cameron & Kim Thayil)From the album 'Death By Rock And Roll' | Available Now: http://found.ee/olc...Make Me Wanna Die " is a song by American the Pretty Reckless from their eponymous debut extended play (2010) and their debut studio album, Light Me Up (2010). The song was written by Taylor Momsen, Ben Phillips, and Kato Khandwala, and produced by the latter. It was released on April 14, 2010, as the lead single from both the EP and the album.Information on The Pretty Reckless. Complete discography, ratings, reviews and more.The Pretty Reckless - “Take Me Down”Listen to the new album 'Death By Rock And Roll' | Available Now: http://found.ee/dbrr Subscribe to The Pretty Reckless o...The Pretty Reckless' 4th full-length album, Death By Rock And Roll, is their most ambitious release yet. It was written through the heartbreaking losses of Chris Cornell (who was one of frontwoman Taylor Momsen's musical muses) and longtime collaborator Kato Khandwala. The titular first single became their record-breaking fifth #1 song at ... Aug 26, 2022 · THE PRETTY RECKLESS's latest album, "Death By Rock And Roll", was made available in February 2021 via Fearless Records in the U.S. and Century Media Records in the rest of the world. It was the second album, Going to Hell, that saw The Pretty Reckless start to make an impact at rock radio, yielding five singles include the chart-topping "Heaven Knows," "Messed Up World (F'd Up ...11. Videoclipes. 12. Esta lista mostra a discografia de The Pretty Reckless, uma banda de rock americana, compreende em dois álbum de estúdio, um extended-play e cinco singles oficiais todos com videoclipes.The Pretty Reckless is an American rock band from New York City, formed in 2009. The band consists of Taylor Momsen (lead vocals, rhythm guitar), Ben Phillips (lead guitar, backing vocals), Mark Damon (bass), and Jamie Perkins (drums). The band released their debut studio album, Light Me Up, in August 2010. The Pretty Reckless frontwoman Taylor Momsen faces your questions about lost friends, life in quarantine and her band’s new album. Four years on from their last album, The Pretty Reckless return in the face of personal loss and depression for the follow-up, Death By Rock And Roll. In the meantime, we challenged frontwoman Taylor Momsen to ...This is the third album from the Pretty Reckless. It was released in 2016. The CD comes in a card board sleeve. There are some fold-out sleeve notes but overall the packaging is a disappointment. I bought the Pretty Reckless records (albums) out of order. Liek most of the world I bought into the 2nd album first.Matt Cameron & Kim Thayil) Music Video The Pretty Reckless Albums Ranked - Light Me Up, Death by Rock and Roll, Going to HellLight Me Up is the debut studio album by American rock band The Pretty Reckless. It was released on August 27, 2010, by Interscope Records. The album received commercial …The Pretty Reckless Albums Download, 07 CDs by MEGA years 2010 – 2022 In Original High Quality Audio FLAC 16-bits (Lossless). Download Studio Albums, Live Albums, Compilations, Singles, and EPs. *** THE PRETTY RECKLESS ALBUMS DOWNLOAD FLAC 16-BITS (LOSSLESS) ***Feb 8, 2021 · The Pretty Reckless’ best album to date, the passion and pain are palpable in both music and lyrics. The plaintive “Got So High” could be an alt-rock chart-topper, in wonderful contrast to ... Listen to Kill Me on the English music album Kill Me by The Pretty Reckless, only on JioSaavn. Play online or download to listen offline - in HD audio, only on JioSaavn.Nov 4, 2022 · Murray Winship June 2, 2023. "Got So High (Remix)" by The Pretty Reckless, is just a classic now on her latest 2022 album "Other Worlds" to highest acclaim you know. She is better known as Taylor Momsen, best known for her starring role in the TV series Gossip Girl, singing in this hard rock quartet The Pretty Reckless you see. "Death by Rock ... This is the band’s newest release since Death by Rock and Roll in 2021. At first, it seemed strange to me for The Pretty Reckless to release an album full of acoustic songs, covers, and remixes. However, the band knocked it out of the park. With Ben Philips on guitar, Jamie Perkins on drums, Mark Damon on bass, and of course Taylor Momsen ...Mar 8, 2021 · Her band The Pretty Reckless have released their fourth album, Death By Rock And Roll, a bold alignment of grunge riffs and classic-rock choruses that tackles grief, depression and survival with a clarity reaped by hard-earned experience. It’s the pinnacle so far of a music career stretching back to 2008, when singer Momsen formed the band as ... Releases. Showing 0 - 0 of 0. Explore music from The Pretty Reckless. Shop for vinyl, CDs, and more from The Pretty Reckless on Discogs.The band's first album, Light Me Up, saw release in Europe and Australia in late summer of 2010 and the record rolled out in North America in 2011. The Pretty Reckless toured steadily behind Light Me Up, releasing the Hit Me Like a Man EP in March 2012. A year later, the group's second full-length album, Going to Hell, appeared. Dec 18, 2020 · Below PAPER is exclusively premiering the music video for "25," which is a love letter to New York City where Momsen paints a haunting portrait of glamour and grit while sporting gowns of chiffon and glitter. Alongside the video, Momsen spoke to PAPER about grief, the Gossip Girl reboot and the new album from The Pretty Reckless. Are you someone who loves listening to . The Pretty Reckless? With Wynk, you can now access to all The Pretty Reckless’s songs, biography, and albums. Tune into The Pretty Reckless album and enjoy all the latest songs harmoniously. Listen to The Pretty Reckless MP3 songs online from the playlist available on Wynk Music or download them …Released: September 9, 2016. "Back to the River". Released: June 13, 2017. Who You Selling For is the third studio album by American rock band The Pretty Reckless. It was released on October 21, 2016, by Razor & Tie. The album reached number 13 on the US Billboard 200 and number 23 on the UK Albums Chart. Its lead single, "Take Me Down", topped ...This Complete List Of The Pretty Reckless Albums And Songs presents the full discography of The Pretty Reckless studio albums. The band The Pretty Reckless was first formed in The group hails from the area of This complete discography by The Pretty Reckless also includes every single live album. When it comes to music, it’s hard to predict which song is going to be the next big hit. When it comes to albums, it’s even harder to know which artists people are going to love enough to buy copies of their work to keep in their homes, pla...2021. The Pretty Reckless discography and songs: Music profile for The Pretty Reckless, formed 2009. Genres: Hard Rock, Post-Grunge, Acoustic Rock. Albums include Light …The Pretty Reckless—Taylor Momsen [Vocals], Ben Phillips [Guitar], Jamie Perkins [drums], and Mark Damon [bass]—are truly a rock and roll band. Embodying unwavering integrity and serving up uncompromising anthems, the Pretty Reckless’s unbelievable twelve-year journey has quietly brought them from sweaty small gigs to successive number ...About The Pretty Reckless. Fronted by former actress Taylor Momsen, New York City band The Pretty Reckless formed in 2009 and soon became rock radio …The Pretty Reckless 02.27.21 28 12 Wks 02.27.21 1 Light Me Up ... The Pretty Reckless Earn First No. 1 on Top Album Sales Chart With ‘Death by Rock and Roll’ Matt Cameron and The Pretty Reckless's Taylor Momsen collaborated on a cover of Soundgarden ... He noted in the Instagram caption that he was working on the new Pretty Reckless album, ...The Pretty Reckless will release their new album ‘Other Worlds’, a record of acoustic recordings and cover versions, on Friday (November 4). Check out the video for the new acoustic version of ...Matt Cameron & Kim Thayil) Music Video The Pretty Reckless Albums Ranked - Light Me Up, Death by Rock and Roll, Going to HellPERFORMER "The Pretty Reckless" REM COMPOSER "" ISRC US5262224848 INDEX 01 00:00:00 FILE "03 - The Keeper.wav" WAVE TRACK 03 AUDIO TITLE "The Keeper" PERFORMER "The Pretty Reckless feat. Alain Johannes" REM COMPOSER "" ISRC US5262224849 INDEX 01 00:00:00 FILE "04 - Quicksand.wav" WAVE TRACK 04 …The Pretty Reckless' 4th full-length album, Death By Rock And Roll, is their most ambitious release yet. It was written through the heartbreaking losses of Chris Cornell (who was one of frontwoman Taylor Momsen's musical muses) and longtime collaborator Kato Khandwala. The titular first single became their record-breaking fifth #1 …Planning a wedding can be an expensive affair, but there are ways to cut costs without compromising on the quality of your special day. One such way is by utilizing free wedding album PSD templates.The Pretty Reckless - “Take Me Down”Listen to the new album 'Death By Rock And Roll' | Available Now: http://found.ee/dbrr Subscribe to The Pretty Reckless o...Check out The Pretty Reckless on Amazon Music. Stream ad-free or purchase CD's and MP3s now on Amazon. ... Album • 2022. Only Love Can Save Me Now (Acoustic)The Pretty Reckless is the self-titled debut EP by American rock band The Pretty Reckless. The album was released on June 22, 2010, by Interscope Records . [1] The album's lead single, " Make Me Wanna Die ", was released on May 13, 2010.Sign up for Deezer for free and listen to The Pretty Reckless: discography, top tracks and playlists.The creation of The Pretty Reckless’ fourth album ‘Death By Rock And Roll’ was blighted with tragedy. In 2017, the band scored the gig of a lifetime supporting Soundgarden on tour, but their ...discography, line-up, biography, interviews, photos. Ben Phillips. Vocals, Guitar, Back Vocals. Taylor Momsen. Vocals, Guitar. Mark DamonReleased: April 14, 2010. "Miss Nothing". Released: August 18, 2010. "Just Tonight". Released: December 23, 2010. Light Me Up is the debut studio album by American rock band The Pretty Reckless. It was released on August 27, 2010, by Interscope Records. The album received commercial success with the singles "Make Me Wanna Die", "Miss Nothing ... The Pretty Reckless Albums Ranked - Light Me Up, Death by Rock and Roll, Going to Hell. ... The Pretty Reckless: Country: United States: Genres: Hard Rock: Labels: Interscope Records, Razor & Tie, Fearless Records: The Pretty Reckless Albums Ranked. Rank Cover art Album Rating Votes Reviews ; 1:Formed in 2009, THE PRETTY RECKLESS released their debut album, "Light Me Up", in 2010 scoring legions of fans worldwide, ...The Pretty Reckless released their debut album, "Light Me Up" (No. 10; U.S. Alt Rock) in 2010 and quickly hit the road, becoming one of rock's busiest bands. The Pretty Reckless was part of the 2010 Warped Tour before headlining The Medicine and Light Me Up Tours respectively.The Pretty Reckless full album discography to listen and download on high quality. Albums, EPs, singles, rarities and more on Mp3 at 320 Kbps. Skip to content. ... Deathcore; Nu Metal; Metalcore; Heavy Metal; Thrash Metal; Doom Metal; MENU. Home; 2022 Albums; Discographies; The Pretty Reckless . The Pretty Reckless - Death by Rock …The album also went to number eight in the U.K. Two years later, the Pretty Reckless returned with their third album, the Kato Khandwala-produced Who You Selling For. Buoyed by the number one mainstream rock single "Take Me Down," the set reached number 13 on the Billboard 200 and spawned several more singles with "Oh My God" and "Back to the ... 4:39. The Pretty Reckless "Going to Hell" acoustic. 3:43. The Pretty Reckless - Heaven Knows (Official Music Video) 3:45. The Pretty Reckless - Messed Up World (F'd Up World) (Official Music Video) 4:16. Explore the tracklist, credits, statistics, and more for Going To Hell by The Pretty Reckless. Compare versions and buy on Discogs.The Pretty Reckless' 4th full-length album, Death By Rock And Roll, is their most ambitious release yet. It was written through the heartbreaking losses of Chris Cornell (who was one of frontwoman Taylor Momsen's musical muses) and longtime collaborator Kato Khandwala. The titular first single became their record-breaking fifth #1 …The Pretty Reckless—Taylor Momsen [Vocals], Ben Phillips [Guitar], Jamie Perkins [drums], and Mark Damon [bass]—are truly a rock and roll band. ... 2017 set off a series of events that shook the group to its very core, yet ultimately cast their fourth full-length album and Fearless Records debut, in the kind of fire, tears and blood that ...The Pretty Reckless is an American alternative rock band from New York, United States. The current members are Taylor Momsen (lead vocals, rhythm guitar), Ben Phillips (lead guitar, backing vocals), Mark Damon (bass) and Jamie Perkins (drums). The band formed in 2009 when Momsen stated that she would quit acting after her television role Jenny ...11. Videoclipes. 12. Esta lista mostra a discografia de The Pretty Reckless, uma banda de rock americana, compreende em dois álbum de estúdio, um extended-play e cinco singles oficiais todos com videoclipes.The Pretty Reckless's Photos. Tagged photos. Albums. The Pretty Reckless. 1,844,250 likes · 413 talking about this. Death By Rock And Roll.discography, line-up, biography, interviews, photos. Ben Phillips. Vocals, Guitar, Back Vocals. Taylor Momsen. Vocals, Guitar. Mark Damon The Pretty Reckless Albums Ranked. Rank Cover art Album Rating Votes Reviews ; 1: Light Me Up (2010) 90: 3: 0 #134 for 2010 #3,906 all-time: 2: Death by Rock and Roll ... SHOW ALL QUESTIONS. " Messed Up World (F'd Up World) " (titled " Fucked Up World " in the album version) is a song by American rock band The Pretty Reckless from their second studio album, Going to Hell (2014). It was released on April 22, 2014, as the album's third single. The track topped Billboard ' s Mainstream Rock Songs chart in 2014.The Pretty Reckless' Joan Jett and Nirvana-inspired debut album Light Me Up was released in 2010 and peaked at Number 6 on the Official Albums Chart. Light Me Up spawned the Top 40 hits Make Me ...Jun 22, 2023 · Great show, really put some effort in, and my daughter (who discovered this band for me) totally loved it. Only 1 1/2 hours long for the headline act, but for a band with only a couple of albums that's forgiveable, and with TWO support bands it was plenty late enough anyway! The Pretty Reckless will release their new album, Other Worlds on November 4th, 2022, via Century Media Records. An album where they deliver their first proper acoustic recordings, unexpected covers, and other reimaginings, covering new territory once more.At just 27 years of age, Taylor Momsen is a rock’n’roll veteran. Her band The Pretty Reckless have released their fourth album, Death By Rock And Roll, a bold …The album also went to number eight in the U.K. Two years later, the Pretty Reckless returned with their third album, the Kato Khandwala-produced Who You Selling For. Buoyed by the number one mainstream rock single "Take Me Down," the set reached number 13 on the Billboard 200 and spawned several more singles with "Oh My God" and "Back to the ...August 26, 2022. Words: Emily Carter. After 2021’s Death By Rock And Roll album, The Pretty Reckless are following things up with a brand new collection of material, Other Worlds. On November 4 ...Pretty reckless albums

The Pretty Reckless - “Kill Me”Listen to the new album 'Death By Rock And Roll' | Available Now: http://found.ee/dbrr Subscribe to The Pretty Reckless on You.... Pretty reckless albums

pretty reckless albums

Now if you still don't believe that The Pretty Reckless is one of the greatest American rock bands of the century, why not give them a shot. Plug in your headphones, lean back, close your eyes and sink into The Pretty Reckless's world of madness. Listen to their lyrics. Feel the beat. Take a minute for the spell to take over.Feb 12, 2021 · Yes, the album is dedicated to the late Kato Khandwala, The Pretty Reckless' long time producer and manager who had a fatal accident in 2018. The Vinyl depicts a guitar with a caption that reads ... Other Worlds by The Pretty Reckless, released 04 November 2022 1. Got So High (Remix) 2. Loud Love 3. The Keeper (fear. Alain Johannes) 4. Quicksand (feat. Mike Garson) 5. 25 (Acoustic) 6. Only Love Can Save Me Now (Acoustic) 7. Death By Rock And Roll (Acoustic) 8. Halfway There (feat. Matt Cameron) 9. (What’s So Funny ‘Bout) Peace, …Nov 1, 2022 · The Pretty Reckless will release their new album, Other Worlds on November 4th, 2022, via Century Media Records. An album where they deliver their first proper acoustic recordings, unexpected covers, and other reimaginings, covering new territory once more. This album will no doubt be gobbled up by established Pretty Reckless fans but if you have yet to dip your toe for any reason, Other Worlds offers you the perfect opportunity to sample the band in a unique way, trust me you’ll love it. Other Worlds arrives this coming Friday, Nov 4 th courtesy of Fearless Records. Track Listing: 1.Provided to YouTube by Universal Music GroupWitches Burn · The Pretty RecklessDeath By Rock And Roll℗ 2020 Goin' Down, Inc., Under exclusive license to Fearl...The Pretty Reckless - “Going To Hell”Listen to the new album 'Death By Rock And Roll' | Available Now: http://found.ee/dbrr Subscribe to The Pretty Reckless ...Other Worlds by The Pretty Reckless, released 04 November 2022 1. Got So High (Remix) 2. Loud Love 3. The Keeper (fear. Alain Johannes) 4. Quicksand (feat. Mike Garson) 5. 25 (Acoustic) 6. Only Love Can Save Me Now (Acoustic) 7. Death By Rock And Roll (Acoustic) 8. Halfway There (feat. Matt Cameron) 9. (What’s So Funny ‘Bout) Peace, …Discover Light Me Up by The Pretty Reckless released in 2010. Find album reviews, track lists, credits, awards and more at AllMusic."Death By Rock And Roll" was THE PRETTY RECKLESS's first album to be made without longtime producer Kato Khandwala, who died in April 2018 from injuries sustained in a motorcycle accident.Feb 16, 2021 · The group’s fourth album features appearances from Soundgarden’s Matt Cameron and Kim Thayil, and Rage Against the Machine’s Tom Morello. Hard rock outfit The Pretty Reckless have released ... The Pretty Reckless—Taylor Momsen [Vocals], Ben Phillips [Guitar], Jamie Perkins [drums], and Mark Damon [bass]—are truly a rock and roll band. Embodying unwavering integrity and serving up uncompromising anthems, the Pretty Reckless’s unbelievable twelve-year journey has quietly brought them from sweaty small gigs to successive number ...4:39. The Pretty Reckless "Going to Hell" acoustic. 3:43. The Pretty Reckless - Heaven Knows (Official Music Video) 3:45. The Pretty Reckless - Messed Up World (F'd Up World) (Official Music Video) 4:16. Explore the tracklist, credits, statistics, and more for Going To Hell by The Pretty Reckless. Compare versions and buy on Discogs.Nov 2, 2022 · The Pretty Reckless will release their new album ‘Other Worlds’, a record of acoustic recordings and cover versions, on Friday (November 4). Check out the video for the new acoustic version of ... Dec 18, 2020 · The Pretty Reckless - 25 (Official Music Video) From the new album 'Death By Rock And Roll' | Available Now: http://found.ee/dbrr Subscribe to The Pretty Rec... The Pretty Reckless released their first album, Light Me Up, in August 2010 — their fourth single from the track, "Kill Me," was featured in Gossip Girls' series finale. The band later released ...Gostaríamos de exibir a descriçãoaqui, mas o site que você está não nos permite.February 9, 2021. There’s always been a rather pronounced sense of awkwardness about The Pretty Reckless in modern rock, in that they’re a band whose rather high-profile spot has been held time and time again, without any sort of expectation to deliver or actually earn it. There’s indeed a lot of heavy lifting done by Taylor Momsen as the ...Releases. Showing 0 - 0 of 0. Explore music from The Pretty Reckless. Shop for vinyl, CDs, and more from The Pretty Reckless on Discogs.Planning a wedding can be an expensive affair, but there are ways to cut costs without compromising on the quality of your special day. One such way is by utilizing free wedding album PSD templates.Death by Rock and Roll est le quatrième album studio du groupe américain de rock alternatif The Pretty Reckless, sorti le 21 février 2021. For faster navigation, this Iframe is preloading the Wikiwand page for Death by Rock and Roll .Jun 22, 2023 · Great show, really put some effort in, and my daughter (who discovered this band for me) totally loved it. Only 1 1/2 hours long for the headline act, but for a band with only a couple of albums that's forgiveable, and with TWO support bands it was plenty late enough anyway! The band's first album, Light Me Up, saw release in Europe and Australia in late summer of 2010 and the record rolled out in North America in 2011.Other Worlds (11×File, ALAC, Album)Not On Label (The Pretty Reckless Self-released) none: Worldwide: 2022: New Submission. Other Worlds (LP, Album, Limited Edition, White) Fearless Records, Fearless Records, Fearless Records: FEAR02739, 888072465541, FEAR02830US: ... The Pretty Reckless ...Matt Cameron & Kim Thayil) Music Video The Pretty Reckless Albums Ranked - Light Me Up, Death by Rock and Roll, Going to HellClaiming authenticity is hard when you’ve spent your career imitating rock legends, but The Pretty Reckless are one of the few hard rock revival acts that have actually ridden debauchery into a downward spiral. Death By Rock And Roll details how the passing of their long-term producer Kato Khandwala and tourmate Chris Cornell left …The Pretty Reckless will release their new album ‘Other Worlds’, a record of acoustic recordings and cover versions, on Friday (November 4). Check out the video for the new acoustic version of ...Innuendo-laden lyrics with religious undertones make for a not-so-subtle sexually-driven number on this opening track of The Pretty Reckless' 2014 sophomore album, “Going to Hell.”The Pretty Reckless will release their new album, Other Worlds on November 4th, 2022, via Century Media Records. An album where they deliver their first proper acoustic recordings, unexpected covers, and other reimaginings, covering new territory once more."Follow Me Down" is a song by American rock band The Pretty Reckless from their second studio album, Going to Hell (2014). The song was written by the band's lead singer Taylor Momsen, while production was done by Kato Khandwala. It was serviced to active rock radio in the United States on November 18, 2014, serving as the album's fifth and ...Planning a wedding can be an expensive affair, but there are ways to cut costs without compromising on the quality of your special day. One such way is by utilizing free wedding album PSD templates.The Pretty Reckless - “Take Me Down”Listen to the new album 'Death By Rock And Roll' | Available Now: http://found.ee/dbrr Subscribe to The Pretty Reckless o... The Pretty Reckless discography and songs: Music profile for The Pretty Reckless, formed 2009. Genres: Hard Rock, Post-Grunge, Acoustic Rock. Albums include Light Me Up, Going to Hell, and Death by Rock and Roll. "Follow Me Down" is a song by American rock band The Pretty Reckless from their second studio album, Going to Hell (2014). The song was written by the band's lead singer Taylor Momsen, while production was done by Kato Khandwala.It was serviced to active rock radio in the United States on November 18, 2014, serving as the album's fifth and final single.3:59. The Pretty Reckless - Turning Gold. 4:11. The Pretty Reckless - Rock And Roll Heaven. 5:13. The Pretty Reckless - Harley Darling. 4:20. Best of 2021 by. View credits, reviews, tracks and shop for the 2021 CD release of "Death By Rock And Roll" on Discogs.Gone so down, lost is all I found. Only love, love, love can save me now. The Death By Rock And Roll album is an homage to two hugely important people in vocalist Taylor Momsen's life: Soundgarden vocalist Chris Cornell, who died by suicide in 2017 when Pretty Reckless were touring with them. The band's longtime producer Kato Khandwala, who ...New album 'Death By Rock And Roll' is available February 12, 2021: deathbyrockandroll.comFormed in New York City during 2008, The Pretty Reckless and late pr...Jul 5, 2023 · The Pretty Reckless discography (2009-2022) Uploaded for preservation purposes. Addeddate 2023-07-05 07:27:22 Identifier tpr-discography-2009-2022 Scanner The Pretty Reckless - “Heaven Knows”Listen to the new album 'Death By Rock And Roll' | Available Now: http://found.ee/dbrr Subscribe to The Pretty Reckless o...Nov 14, 2020 · 01 My Medicine 02 Since You're Gone 03 Make Me Wanna Die 04 Light Me Up 05 Just Tonight 06 Miss Nothing 07 Goin' Down 08 Nothing left To Lose 09 Factory Girl... 01 My Medicine 02 Since You're Gone 03 Make Me Wanna Die 04 Light Me Up 05 Just Tonight 06 Miss Nothing 07 Goin' Down 08 Nothing left To Lose 09 Factory Girl...4. How does the song fit into The Pretty Reckless’ overall discography? 5. What are some notable lyrics from the song? 6. How has the song been received by fans and critics? 7. Has The Pretty Reckless performed this song live? 8. Are there any music videos for this song? 9. Are there any alternative interpretations of the song’s meaning? 10.The album also went to number eight in the U.K. Two years later, the Pretty Reckless returned with their third album, the Kato Khandwala-produced Who You Selling For. Buoyed by the number one mainstream rock single "Take Me Down," the set reached number 13 on the Billboard 200 and spawned several more singles with "Oh My God" and "Back to the ... Songfacts®: Pretty Reckless' longtime producer Kato Khandwala died on April 25, 2018, aged 47, from injuries sustained in a motorcycle accident. Khandwala, who was also their manager and friend, worked on their first three albums. This song, the title track of their fourth album, serves as a tribute to their late and lamented comrade.The Pretty Reckless is a New York-based hard rock band fronted by Taylor Momsen, who was born in St. Louis, Missouri, on July 26, 1993... The Pretty Reckless 412961 fansProduct description. After topping the rock charts in 2014 and 2015, The Pretty Reckless return with their third studio album Who You Selling For. The album is the follow up to the top-ten charting Going To Hell, which spawned the biggest rock song of 2014 in ‘Heaven Knows’ and 2010’s Light Me Up which spawned the hit single ‘Make Me ...Since 2008 The Pretty Reckless have taken the rock ‘n’ roll world by storm, revamping it for a whole new generation of music lovers by throwing the rulebook out and introducing a bold vision unlike anything else on the music scene.Now, with the announcement of their new album Other Worlds, to be released on the 4th November, …PERFORMER "The Pretty Reckless" REM COMPOSER "" ISRC US5262224848 INDEX 01 00:00:00 FILE "03 - The Keeper.wav" WAVE TRACK 03 AUDIO TITLE "The Keeper" PERFORMER "The Pretty Reckless feat. Alain Johannes" REM COMPOSER "" ISRC US5262224849 INDEX 01 00:00:00 FILE "04 - Quicksand.wav" WAVE TRACK 04 …Death by Rock and Roll is the fourth studio album by American rock band the Pretty Reckless, released on February 12, 2021. It is the band's first album released with their …Death by Rock and Roll Review by James Christopher Monger. The fourth studio long-player from the Taylor Momsen-fronted N.Y.C. hard rockers, Death by Rock and Roll is the Pretty Reckless' first outing for Fearless Records.The band worked with Pearl Jam and Soundgarden drummer Matt Cameron on a handful of songs -- the title …Feb 8, 2021 · The Pretty Reckless’ best album to date, the passion and pain are palpable in both music and lyrics. The plaintive “Got So High” could be an alt-rock chart-topper, in wonderful contrast to ... Aug 26, 2022 · August 26, 2022. Words: Emily Carter. After 2021’s Death By Rock And Roll album, The Pretty Reckless are following things up with a brand new collection of material, Other Worlds. On November 4 ... The first track The Pretty Reckless recorded for Death By Rock And Roll was 25, in recognition of singer Taylor Momsen reaching a quarter of a century. No-one, it appears, was more surprised she ...Taylor Michel Momsen (born July 26, 1993) is an American singer, songwriter, model, and former child actress. Prior to her retirement from acting, she portrayed the character of Cindy Lou Who in the film How the Grinch Stole Christmas (2000) and Jenny Humphrey on The CW's teen drama series Gossip Girl (2007–2012). Momsen has been the frontwoman of …Going to Hell is the second studio album by American rock band the Pretty Reckless. It was released on March 12, 2014, by Razor & Tie. The album debuted at number five on …3:59. The Pretty Reckless - Turning Gold. 4:11. The Pretty Reckless - Rock And Roll Heaven. 5:13. The Pretty Reckless - Harley Darling. 4:20. Best of 2021 by. View credits, reviews, tracks and shop for the 2021 CD release of …Listen to Kill Me on the English music album Kill Me by The Pretty Reckless, only on JioSaavn. Play online or download to listen offline - in HD audio, only on JioSaavn.. Rs3 relics